Your IP Address is . Location is Your ISP and Government can track your torrent activity! Hide your IP with a VPN!

Battlecreek 2017 720p WEB-DL AAC LLG

DOWNLOAD TORRENT DOWNLOAD Watch Online

Posted by LifeLongg •426 on February 13, 2018 in Movies » Romance , verified torrent

Size: 704.42 MB , Seeds: 4 , Peers: 3 ( Updated February 19, 2018 - Refresh )

* Download via Magnet Link , * To download files you need a Bittorrent Client , * How to download torrents from Bit Torrent Scene?

Scrape History ( seeds + peers )

Internal Files

Battlecreek.2017.720p.WEB-DL.AAC.LLG
Sample.mp4   11.65 MB
Battlecreek.2017.720p.WEB-DL.AAC.LLG.mp4   692.77 MB

Hash Code

5a7f72a1bf95fb8b7f5531f3778d10736de8a494

Description

******************************Thumbnail:**********************

SCREENSHOT

******************************Screenshots:********************

Screenshot 1

Screenshot 2

Screenshot 3

Screenshot 4

Screenshot 5

Screenshot 6

Screenshot 7

Screenshot 8

Screenshot 9

Screenshot 0

Complete name : Battlecreek.2017.720p.WEB-DL.AAC.LLG.mp4
Format : MPEG-4
Format profile : Base Media
Codec ID : isom (isom/iso2/avc1/mp41)
File size : 693 MiB
Duration : 1 h 39 min
Overall bit rate : 971 kb/s
Writing application : Lavf57.56.101

Video
ID : 1
Format : AVC
Format/Info : Advanced Video Codec
Format profile : [email protected]
Format settings : CABAC / 4 Ref Frames
Format settings, CABAC : Yes
Format settings, RefFrames : 4 frames
Codec ID : avc1
Codec ID/Info : Advanced Video Coding
Duration : 1 h 39 min
Bit rate : 900 kb/s
Width : 1 280 pixels
Height : 688 pixels
Display aspect ratio : 1.85:1
Frame rate mode : Constant
Frame rate : 23.976 (23976/1000) FPS
Color space : YUV
Chroma subsampling : 4:2:0
Bit depth : 8 bits
Scan type : Progressive
Bits/(Pixel*Frame) : 0.043
Stream size : 642 MiB (93%)

Audio
ID : 2
Format : AAC
Format/Info : Advanced Audio Codec
Format profile : LC
Codec ID : mp4a-40-2
Duration : 1 h 39 min
Bit rate mode : Constant
Bit rate : 64.7 kb/s
Channel(s) : 2 channels
Channel positions : Front: L R
Sampling rate : 48.0 kHz
Frame rate : 46.875 FPS (1024 SPF)
Compression mode : Lossy
Stream size : 46.1 MiB (7%)
Language : English
Default : Yes
Alternate group : 1

Trackers

Refresh Leechers : Updated February 19, 2018

1. udp://tracker.openbittorrent.com:80/announce

2. udp://tracker.opentrackr.org:1337/announce

Comments

You must log in to add a comment.

Embed Code

Sharing Widget

Related torrents

FILENAME SIZE SEEDS PEERS ADDED UPD
[i] Battlecreek (2017) [720p] [YTS AG] 727.84 MB 411 110 1 week 6 days

Top Movies ( auto generated report )

FILENAME SIZE SEEDS PEERS ADDED UPD
[i] Escape.Room.2017.FRENCH.BDRip.XviD-FuN 718.53 MB 2360 243 2 days 1 day
[i] Guardians of the Tomb (2018) [WEBRip] [720p] [YTS AM] 848.67 MB 2423 1418 1 day 2 hours
[i] Stargate.Origins.S01E04.Episode.4.720p.WEB-DL.AAC2.0.H.264-AJP69 176.09 MB 1668 175 1 day 1 day
[i] The.Lodgers.2017.1080p.WEB-DL.DD5.1.H264-FGT [rarbg] 3.22 GB 1641 800 2 days 1 day
[i] Guardians of the Tomb (2018) [WEBRip] [1080p] [YTS AM] 1.52 GB 1663 1035 1 day 2 hours
[i] Mom and Dad (2017) [BluRay] [720p] [YTS AM] 769.29 MB 1415 790 1 day 2 hours
[i] Mute.2018.WEBRip.x264-FGT [rarbg] 1.2 GB 1017 392 2 days 1 day
[i] Forgotten (2017) [WEBRip] [720p] [YTS AM] 1001.69 MB 925 576 1 day 3 hours
[i] Mom and Dad (2017) [BluRay] [1080p] [YTS AM] 1.39 GB 978 468 1 day 2 hours
[i] The.Lodgers.2017.WEB-DL.x264-FGT 895.15 MB 876 336 2 days 1 day