Your IP Address is . Location is Your ISP and Government can track your torrent activity! Hide your IP with a VPN!

Bomb City 2017 720p BluRay x264 AAC LLG

DOWNLOAD TORRENT DOWNLOAD Watch Online

Posted by LifeLongg •418 on February 14, 2018 in Movies » Action , verified torrent

Size: 943.66 MB , Seeds: 3 , Peers: 2 ( Updated February 20, 2018 - Refresh )

* Download via Magnet Link , * To download files you need a Bittorrent Client , * How to download torrents from Bit Torrent Scene?

Scrape History ( seeds + peers )

Internal Files

Bomb.City.2017.720p.BluRay.x264.AAC.LLG
Sample.mp4   5.39 MB
Bomb.City.2017.720p.BluRay.x264.AAC.LLG.mp4   938.27 MB

Hash Code

eb72bdddf090846b6b36e2111bae0113bc7c8d2d

Description

******************************Thumbnail:**********************

SCREENSHOT

******************************Screenshots:********************

Screenshot 1

Screenshot 2

Screenshot 3

Screenshot 4

Screenshot 5

Screenshot 6

Screenshot 7

Screenshot 8

Screenshot 9

Screenshot 0

Complete name : Bomb.City.2017.720p.BluRay.x264.AAC.LLG.mp4
Format : MPEG-4
Format profile : Base Media
Codec ID : isom (isom/iso2/avc1/mp41)
File size : 938 MiB
Duration : 1 h 38 min
Overall bit rate : 1 332 kb/s
Writing application : Lavf57.56.101

Video
ID : 1
Format : AVC
Format/Info : Advanced Video Codec
Format profile : [email protected]
Format settings : CABAC / 4 Ref Frames
Format settings, CABAC : Yes
Format settings, RefFrames : 4 frames
Codec ID : avc1
Codec ID/Info : Advanced Video Coding
Duration : 1 h 38 min
Bit rate : 1 200 kb/s
Width : 1 280 pixels
Height : 720 pixels
Display aspect ratio : 2.40:1
Original display aspect ratio : 2.40:1
Frame rate mode : Constant
Frame rate : 23.976 (23976/1000) FPS
Color space : YUV
Chroma subsampling : 4:2:0
Bit depth : 8 bits
Scan type : Progressive
Bits/(Pixel*Frame) : 0.054
Stream size : 844 MiB (90%)

Audio
ID : 2
Format : AAC
Format/Info : Advanced Audio Codec
Format profile : LC
Codec ID : mp4a-40-2
Duration : 1 h 38 min
Duration_LastFrame : -8 ms
Bit rate mode : Constant
Bit rate : 129 kb/s
Channel(s) : 2 channels
Channel positions : Front: L R
Sampling rate : 48.0 kHz
Frame rate : 46.875 FPS (1024 SPF)
Compression mode : Lossy
Stream size : 90.7 MiB (10%)
Default : Yes
Alternate group : 1

Trackers

Refresh Leechers : Updated February 20, 2018

1. udp://tracker.openbittorrent.com:80/announce

2. udp://tracker.opentrackr.org:1337/announce

Comments

You must log in to add a comment.

Embed Code

Sharing Widget

Related torrents

FILENAME SIZE SEEDS PEERS ADDED UPD
[i] Bomb City (2017) [720p] [YTS AG] 720.6 MB 1497 336 1 week 1 week
[i] Bomb City 2017 720p WEB-DL DD5 1 H264-CMRG 2.74 GB 0 26 1 week 6 days

Top Movies ( auto generated report )

FILENAME SIZE SEEDS PEERS ADDED UPD
[i] Escape.Room.2017.FRENCH.BDRip.XviD-FuN 718.53 MB 2360 243 1 day 6 hours
[i] The.Lodgers.2017.1080p.WEB-DL.DD5.1.H264-FGT [rarbg] 3.22 GB 1641 800 1 day 7 hours
[i] Stargate.Origins.S01E04.Episode.4.720p.WEB-DL.AAC2.0.H.264-AJP69 176.09 MB 1668 175 1 day 4 hours
[i] Guardians.of.the.Tomb.2018.1080p.WEB-DL.DD5.1.H264-FGT [rarbg] 3.11 GB 742 368 1 day 7 hours
[i] Escape.Room.2017.FRENCH.720p.BluRay.x264-LOST 4.37 GB 353 78 1 day 6 hours
[i] Curvature.2017.1080p.WEB-DL.DD5.1.H264-FGT [rarbg] 3.02 GB 218 92 1 day 7 hours
[i] Mute 2018 720p WEBRip 999MB 1001.04 MB 749 552 1 day 4 hours
[i] Monster Family (2017).H264.italian.english.Ac3-5.1.sub.ita.eng.MIRCrew 1.41 GB 354 147 1 day 12 hours
[i] Mute.2018.WEBRip.x264-FGT [rarbg] 1.2 GB 1017 392 1 day 7 hours
[i] 7.Guardians of the Tomb 2018.HDRip.XviD.AC3-EVO[EtMovies] 1.36 GB 59 26 1 day 7 hours