Your IP Address is . Location is Your ISP and Government can track your torrent activity! Hide your IP with a VPN!

Just Getting Started 2017 Movies 720p BluRay x264 5.1 with Sample ☻rDX☻

DOWNLOAD TORRENT DOWNLOAD Watch Online

Posted on February 14, 2018 in Movies » Misc

Size: 1.03 GB , Seeds: 2 , Peers: 7 ( Updated February 20, 2018 - Refresh )

* Download via Magnet Link , * To download files you need a Bittorrent Client , * How to download torrents from Bit Torrent Scene?

Scrape History ( seeds + peers )

Internal Files

Just Getting Started 2017 Movies 720p BluRay x264 5.1 with Sample ☻rDX☻
Sample ~ Just Getting Started 2017 Movies 720p BluRay x264 5.1 ☻rDX☻.mkv   10.12 MB
Just Getting Started 2017 Movies 720p BluRay x264 5.1 ☻rDX☻.mkv   1.02 GB

Hash Code

59c704896eab497d488f2fb9b6d7bed31249f029

Description

Just Getting Started 2017 Movies 720p BluRay x264 5.1 with Sample ☻rDX☻

===============================================================================================


SCREEN SHOTS:

SCREENSHOT

or


http://postimage.co.nr/2018/2/cheap/1.html

File size : 1.02 GiB

Duration : 1 h 30 min

Overall bit rate : 1 601 kb/s

Movie name : Just Getting Started 2017 Movies 720p BluRay x264 5.1 ☻rDX☻☻rDX☻


Video

ID : 2

Format : AVC

Format/Info : Advanced Video Codec

Format profile : [email protected]
Format settings, CABAC : Yes

Format settings, ReFrames : 5 frames

Codec ID : V_MPEG4/ISO/AVC

Duration : 1 h 30 min

Bit rate : 1 152 kb/s

Width : 1 280 pixels

Height : 536 pixels

Display aspect ratio : 2.40:1

Frame rate mode : Constant

Frame rate : 23.976 FPS

Color space : YUV

Chroma subsampling : 4:2:0

Bit depth : 8 bits

Scan type : Progressive

Bits/(Pixel*Frame) : 0.070

Stream size : 729 MiB (70%)

Title : ☻rDX☻

Writing library : x264


Audio

ID : 1

Format : AC-3

Format/Info : Audio Coding 3

Mode extension : CM (complete main)

Format settings, Endianness : Big

Codec ID : A_AC3

Duration : 1 h 30 min

Bit rate mode : Constant

Bit rate : 448 kb/s

Channel(s) : 6 channels

Channel positions : Front: L C R, Side: L R, LFE

Sampling rate : 48.0 kHz

Frame rate : 31.250 FPS (1536 spf)

Bit depth : 16 bits

Compression mode : Lossy

Delay relative to video : -21 ms

Stream size : 291 MiB (28%)

Title : ☻rDX☻

Default : Yes

Forced : No


SCREENSHOT

IMDB : http://www.imdb.com/title/tt5721088

Torrent location

http://www.1337x.to/torrent/2799881/Just-Getting-Started-2017-Movies-720p-BluRay-x264-5-1-with-Sample-rDX/

Trackers

Refresh Leechers : Updated February 20, 2018

1. http://bigfoot1942.sektori.org:6969/announce

2. http://tracker2.wasabii.com.tw:6969/announce

3. http://tracker.opentrackr.org/announce

4. http://announce.torrentsmd.com:6969/announce

5. http://tracker.trackerfix.com/announce

6. http://tracker.opentrackr.org/announce

7. udp://explodie.org:6969/announce

8. udp://mgtracker.org:6969/announce

9. udp://asnet.pw:2710/announce

10. udp://tracker.mgtracker.org:2710/announce

11. udp://tracker4.piratux.com:6969/announce

12. udp://tracker.trackerfix.com:80/announce

13. udp://tracker.pomf.se:80/announce

14. udp://tracker.x4w.co:6969/announce

15. udp://castradio.net:6969/announce

16. udp://ipv4.tracker.harry.lu:80/announce

17. udp://tracker.mg64.net:6881/announce

18. udp://tracker.sktorrent.net:6969/announce

19. udp://tracker.blackunicorn.xyz:6969/announce

20. udp://tracker.internetwarriors.net:1337/announce

21. udp://public.popcorn-tracker.org:6969/announce

22. udp://glotorrents.pw:6969/announce

23. udp://tracker.vanitycore.co:6969/announce

24. udp://tracker.trackerfix.com:80/announce

25. udp://p4p.arenabg.ch:1337/announce

26. udp://9.rarbg.me:2710/announce

27. udp://tracker.zer0day.to:1337/announce

28. udp://tracker.opentrackr.org:1337/announce

29. udp://tracker.pirateparty.gr:6969/announce

30. udp://9.rarbg.to:2710/announce

31. udp://eddie4.nl:6969/announce

32. udp://tracker.coppersurfer.tk:6969/announce

33. udp://tracker.leechers-paradise.org:6969/announce

34. udp://tracker.publicbt.com:80/announce

35. http://tracker.publicbt.com/announce

36. udp://coppersurfer.tk:6969/announce

37. udp://tracker.leechers-paradise.org:6969/announce

38. http://tracker.btcake.com/announce

39. http://tracker.aletorrenty.pl:2710/announce

40. http://mgtracker.org:2710/announce

41. udp://explodie.org:6969/announce

42. udp://tracker.pomf.se:80/announce

43. http://retracker.krs-ix.ru/announce

44. udp://glotorrents.pw:6969/announce

45. udp://tracker.coppersurfer.tk:6969/announce

Comments

You must log in to add a comment.

Embed Code

Sharing Widget

Related torrents

FILENAME SIZE SEEDS PEERS ADDED UPD
[i] Just Getting Started (2017) [720p] [YTS AG] 666.54 MB 1160 328 1 week 4 days
[i] Just Getting Started (2017) [1080p] [YTS AG] 1.38 GB 861 201 1 week 4 days
[i] Just.Getting.Started.2017.BDRip.x264-DRONES [rarbg] 683.07 MB 279 61 1 week 5 days
[i] Just Getting Started.2017.BRRip.XviD.AC3-EVO 1.41 GB 82 24 1 week 5 days
[i] Just.Getting.Started.2017.BRRip.XviD.AC3-EVO 1.41 GB 32 4 1 week 5 days
[i] Just Getting Started 2017 BRRip XViD-ETRG
posted by juggs in Movies - Comedy
705.07 MB 32 10 1 week 5 days
[i] Just Getting Started 2017 720p BluRay x264-NeZu
posted by NeZu2k16 in Movies - Comedy
970.13 MB 23 24 5 days 4 days
[i] Just.Getting.Started.2017.BluRay.1080p.x264.DTS-HD.MA5.1-dtone 9.13 GB 13 42 3 days 2 days
[i] Just.Getting.Started.2017.BDRip.x264-DRONES[EtMovies] 707.2 MB 12 4 1 week 5 days
[i] Just.Getting.Started.2017.BDRip.x264-DRONES 691.2 MB 11 4 1 week 5 days

Top Movies ( auto generated report )

FILENAME SIZE SEEDS PEERS ADDED UPD
[i] Escape.Room.2017.FRENCH.BDRip.XviD-FuN 718.53 MB 2360 243 2 days 1 day
[i] Guardians of the Tomb (2018) [WEBRip] [720p] [YTS AM] 848.67 MB 2423 1418 1 day 3 hours
[i] Stargate.Origins.S01E04.Episode.4.720p.WEB-DL.AAC2.0.H.264-AJP69 176.09 MB 1668 175 2 days 1 day
[i] The.Lodgers.2017.1080p.WEB-DL.DD5.1.H264-FGT [rarbg] 3.22 GB 1641 800 2 days 1 day
[i] Guardians of the Tomb (2018) [WEBRip] [1080p] [YTS AM] 1.52 GB 1663 1035 1 day 3 hours
[i] Mom and Dad (2017) [BluRay] [720p] [YTS AM] 769.29 MB 1415 790 1 day 3 hours
[i] Mute.2018.WEBRip.x264-FGT [rarbg] 1.2 GB 1017 392 2 days 1 day
[i] Forgotten (2017) [WEBRip] [720p] [YTS AM] 1001.69 MB 925 576 1 day 3 hours
[i] Mom and Dad (2017) [BluRay] [1080p] [YTS AM] 1.39 GB 978 468 1 day 3 hours
[i] The.Lodgers.2017.WEB-DL.x264-FGT 895.15 MB 876 336 2 days 1 day