Your IP Address is . Location is Your ISP and Government can track your torrent activity! Hide your IP with a VPN!

Thelma 2017 1080p BluRay x264 AAC LLG

DOWNLOAD TORRENT DOWNLOAD Watch Online

Posted by LifeLongg •426 on February 14, 2018 in Movies » Drama , verified torrent

Size: 1.1 GB , Seeds: 5 , Peers: 3 ( Updated February 20, 2018 - Refresh )

* Download via Magnet Link , * To download files you need a Bittorrent Client , * How to download torrents from Bit Torrent Scene?

Scrape History ( seeds + peers )

Internal Files

Thelma.2017.1080p.BluRay.x264.AAC.LLG
Sample.mp4   25.9 MB
Thelma.2017.1080p.BluRay.x264.AAC.LLG.mp4   1.07 GB

Hash Code

83dc30f33f819da1f1a93b00e384d22b929a04ba

Description

******************************Thumbnail:**********************

SCREENSHOT

******************************Screenshots:********************

Screenshot 1

Screenshot 2

Screenshot 3

Screenshot 4

Screenshot 5

Screenshot 6

Screenshot 7

Screenshot 8

Screenshot 9

Screenshot 0

Complete name : Thelma.2017.1080p.BluRay.x264.AAC.LLG.mp4
Format : MPEG-4
Format profile : Base Media
Codec ID : isom (isom/iso2/avc1/mp41)
File size : 1.07 GiB
Duration : 1 h 56 min
Overall bit rate : 1 326 kb/s
Writing application : Lavf57.56.101

Video
ID : 1
Format : AVC
Format/Info : Advanced Video Codec
Format profile : [email protected]
Format settings : CABAC / 4 Ref Frames
Format settings, CABAC : Yes
Format settings, RefFrames : 4 frames
Codec ID : avc1
Codec ID/Info : Advanced Video Coding
Duration : 1 h 56 min
Bit rate : 1 200 kb/s
Width : 1 920 pixels
Height : 800 pixels
Display aspect ratio : 2.40:1
Frame rate mode : Constant
Frame rate : 23.976 (23976/1000) FPS
Color space : YUV
Chroma subsampling : 4:2:0
Bit depth : 8 bits
Scan type : Progressive
Bits/(Pixel*Frame) : 0.033
Stream size : 988 MiB (90%)

Audio
ID : 2
Format : AAC
Format/Info : Advanced Audio Codec
Format profile : LC
Codec ID : mp4a-40-2
Duration : 1 h 56 min
Bit rate mode : Constant
Bit rate : 129 kb/s
Channel(s) : 2 channels
Channel positions : Front: L R
Sampling rate : 48.0 kHz
Frame rate : 46.875 FPS (1024 SPF)
Compression mode : Lossy
Stream size : 107 MiB (10%)
Default : Yes
Alternate group : 1

Trackers

Refresh Leechers : Updated February 20, 2018

1. udp://tracker.openbittorrent.com:80/announce

2. udp://tracker.opentrackr.org:1337/announce

Comments

You must log in to add a comment.

Embed Code

Sharing Widget

Top Movies ( auto generated report )

FILENAME SIZE SEEDS PEERS ADDED UPD
[i] Escape.Room.2017.FRENCH.BDRip.XviD-FuN 718.53 MB 2360 243 2 days 1 day
[i] Guardians of the Tomb (2018) [WEBRip] [720p] [YTS AM] 848.67 MB 2423 1418 1 day 3 hours
[i] Stargate.Origins.S01E04.Episode.4.720p.WEB-DL.AAC2.0.H.264-AJP69 176.09 MB 1668 175 2 days 1 day
[i] The.Lodgers.2017.1080p.WEB-DL.DD5.1.H264-FGT [rarbg] 3.22 GB 1641 800 2 days 1 day
[i] Guardians of the Tomb (2018) [WEBRip] [1080p] [YTS AM] 1.52 GB 1663 1035 1 day 3 hours
[i] Mom and Dad (2017) [BluRay] [720p] [YTS AM] 769.29 MB 1415 790 1 day 3 hours
[i] Mute.2018.WEBRip.x264-FGT [rarbg] 1.2 GB 1017 392 2 days 1 day
[i] Forgotten (2017) [WEBRip] [720p] [YTS AM] 1001.69 MB 925 576 1 day 3 hours
[i] Mom and Dad (2017) [BluRay] [1080p] [YTS AM] 1.39 GB 978 468 1 day 3 hours
[i] The.Lodgers.2017.WEB-DL.x264-FGT 895.15 MB 876 336 2 days 1 day